img image001 image001 image001 image001 image001 image001 image001 image001 image001 image001 image001 image001 image001 image001 image001
Planets Sun Sun Sun
Статистика раздачи
Автор: PriZraK | Размер: 13.22 ГБ | Добавлен: 12 фев 2018
Раздают: 33    Качают: 2
Скачать торрент
Скачать торрент
Описание торрента

СообщениеДобавлено: 12 фев 2018 

Чужая дочь / Одинокий папаша (1-8 серии из 8 )

Перевод: Не требуется
Субтитры: отсутствуют
Формат: WEB-DL , MKV, H.264, AC3
Страна: Россия
Режиссер: Сергей Газаров
Жанр: Драма, криминал
Всего серий: 8
Продолжительность: 8 x ~ 00:50:00
Год выпуска: 2016

В ролях: Игорь Петренко, Андрей Смоляков, Анатолий Кот, Михаил Горевой, Надежда Михалкова, Эльвира Болгова, Сергей Насибов, Любовь Толкалина, Валентина Ляпина, Семён Трескунов, Юлия Сорокина, Владимир Капустин, Фёдор Лавров, Сергей Жигунов, Дмитрий Смирнов

Описание: Бывший автогонщик Максим Авдеев 10 лет провел в тюрьме по ложному обвинению. Его жена Ирина погибла при трагических обстоятельствах, дочь Сашу удочерила приемная семья, а виновник случившегося остался на свободе. Выйдя из тюрьмы, Максим дает себе слово не мстить и не жалеть себя. Единственное, чего он хочет, — увидеться с повзрослевшей дочерью. Давний друг Авдеева помогает ему обустроить новую жизнь и найти девочку, но это оказывается не так просто...



Видео: 1920x1080p (16:9), 25,000 fps, MPEG4 AVC (x264), ~4534 Kbps avg, 0.087 bit/pixel
Аудио: 48 kHz, AC3, 2 ch ~ 192 Kbps

Релиз от:

Релиз предоставлен сайтом tfile.me!!


Общее
Уникальный идентификатор : 201842325788799971311522353342162761062 (0x97D96AFD56B355CB8437895781357566)
Полное имя : F:\TREKER\ТЕМР\chuzhaja_doch_[tfile.ru]\chuzhaja_doch_[tfile.ru]_e01.mkv
Формат : Matroska
Версия формата : Version 2
Размер файла : 1,70 Гбайт
Продолжительность : 50 м. 35 с.
Режим общего битрейта : Постоянный
Общий поток : 4822 Кбит/сек
Название фильма : Chuzhaja.doch.e01.2016.WEB-DL.(1080p).Getty
Дата кодирования : UTC 2018-02-10 08:32:28
Программа кодирования : mkvmerge v4.0.0 ('The Stars were mine') сборка от Jun 6 2010 16:18:42
Библиотека кодирования : libebml v1.0.0 + libmatroska v1.0.0
Обложка : Yes
Attachments : cover.jpg

Видео
Идентификатор : 1
Формат : AVC
Формат/Информация : Advanced Video Codec
Профиль формата :
Параметр CABAC формата : Да
Параметр ReFrames формата : 4 кадра
Идентификатор кодека : V_MPEG4/ISO/AVC
Продолжительность : 50 м. 35 с.
Вид битрейта : Постоянный
Битрейт : 4534 Кбит/сек
Номинальный битрейт : 4800 Кбит/сек
Ширина : 1920 пикселей
Высота : 1080 пикселей
Соотношение сторон : 16:9
Режим частоты кадров : Постоянный
Частота кадров : 25,000 кадров/сек
Цветовое пространство : YUV
Субдискретизация насыщенности : 4:2:0
Битовая глубина : 8 бит
Тип развёртки : Прогрессивная
Бит/(Пиксели*Кадры) : 0.087
Размер потока : 1,60 Гбайт (94%)
Default : Нет
Forced : Нет

Аудио
Идентификатор : 2
Формат : AC-3
Формат/Информация : Audio Coding 3
Расширение режима : CM (complete main)
Параметр Endianness формата : Big
Идентификатор кодека : A_AC3
Продолжительность : 50 м. 35 с.
Вид битрейта : Постоянный
Битрейт : 192 Кбит/сек
Каналы : 2 канала
Расположение каналов : Front: L R
Частота : 48,0 КГц
Частота кадров : 31,250 кадров/сек (1536 spf)
Битовая глубина : 16 бит
Метод сжатия : С потерями
Размер потока : 69,5 Мбайт (4%)
Default : Нет
Forced : Нет










   Похожие торренты   Торрент   Размер 
В этой теме нет новых непрочитанных сообщений. Чужая дочь / Одинокий папаша (1-8 серии из 8) (Сергей Газаров) [2016, драма, криминал, SATRip]

442 | 78

5.13 ГБ

В этой теме нет новых непрочитанных сообщений. Чужая дочь / Одинокий папаша (1-8 серии из 8) (Сергей Газаров) [2016, мелодрама, детектив, криминал, WEB-DLRip]

177 | 40

4.9 ГБ

В этой теме нет новых непрочитанных сообщений. Чужая дочь / Одинокий папаша (1-8 серии из 8) (Сергей Газаров) [2016, мелодрама, детектив, криминал, HDTVRip-AVC]

52 | 7

5.93 ГБ

В этой теме нет новых непрочитанных сообщений. Чужая дочь / Одинокий папаша (1-8 серии из 8) (Сергей Газаров) [2016, мелодрама, детектив, криминал, HDTVRip]

551 | 137

5.41 ГБ

В этой теме нет новых непрочитанных сообщений. Чужая дочь / Одинокий папаша (1-8 серии из 8) (Сергей Газаров) [2016, мелодрама, детектив, криминал, HDTVRip 720p]

51 | 14

9.99 ГБ

В этой теме нет новых непрочитанных сообщений. Чужая дочь [01-02 из 08] (2016) WEB-DL 1080p от Files-x

0 | 0

6.74 ГБ

В этой теме нет новых непрочитанных сообщений. Рэй Донован, 5 сезон 1-6 серии из 12 / Ray Donovan [IdeaFilm] (Майкл Аппендаль, Джон Дал) [2017, криминал, драма, WEBRip 1080p, Р]

0 | 0

25.62 ГБ




Вы не можете начинать темы
Вы не можете отвечать на сообщения
Вы не можете редактировать свои сообщения
Вы не можете удалять свои сообщения
Вы не можете добавлять вложения

Перейти:  
Для Мосгорсуда, Роскомнадзора и рекламодателей: mosgorsud-torrent[собачка]yandex.ru
 Вход
ppkBB3cker v.2 © 2008-2014 @ PPK
[ Time : 0.078s | 18 Queries | GZIP : Off ]

cron