img image001 image001 image001 image001 image001 image001 image001 image001 image001 image001 image001 image001 image001 image001 image001
Planets Sun Sun Sun
Статистика раздачи
Автор: PriZraK | Размер: 7.2 ГБ | Добавлен: 12 фев 2018
Раздают: 68    Качают: 5
Скачать торрент
Скачать торрент
Описание торрента

СообщениеДобавлено: 12 фев 2018 

Временно недоступен (1-8 серии из [b]8)[/b]

Перевод: Не требуется
Субтитры: отсутствуют
Формат: WEB-DLRip-AVC, MKV, H.264, AC3
Страна: Россия
Режиссер: Михаил Хлебородов
Жанр: комедия
Всего серий: 8
Продолжительность: 8 x ~ 00:50:00
Год выпуска: 2015

В ролях: Сергей Безруков, Дмитрий Дюжев, Вера Шпак, Екатерина Федулова, Валерия Ланская, Олег Тактаров, Ричард Бондарев, Дмитрий Хрусталёв, Георгий Мартиросьян, Александр Тютин, Сергей Вершинин, Олег Чудницов, Сергей Астахов, Александр Бобров (IV), Степан Куликов, Андрей Феськов, Константин Мурзенко, Нодар Джанелидзе, Евгения Нохрина, Михаил Шилов, Алексей Огурцов, Галина Боб, Николай Басканчин, Александр Аноприков, Пётр Королёв (II), Антон Кузнецов, Наталья Качалкина, Валерия Минина, Дмитрий Буренков, Артём Гайдуков, Андрей Исаенков, Анна Цанг, Андрей Кивинов, Георгий Тополага, Олег Курлов, Елена Киркова, Александр Баширов, Ирина Токмакова, Александр Амелин (IV), Елена Михеева, Сергей Бурлаченко, Александр Миронов (III), Мария Романова, Алексей Новиков (II), Никита Померанцев, Сергей Холмогоров, Юрий Внуков, Родион Баранов, Анна Перелешина, Сергей Стёпин, Антон Ескин, Михаил Гудошников, Игорь Маслов (II), Андрей Лебедев, Виктор Муравский

Описание: Московский чиновник по правовым вопросам в районной администрации Вячеслав Золотов и следователь Следственного Комитета по Калининграду Антон Плетнев в один прекрасный день меняются местами, сами того не желая. Одному из них предстоит стать ревизором и провести проверку в провинциальном городе, второму, оставшемуся в больнице без документов, доказать, что он – это он. Вопрос в том, кто из них лучше справится со своей ролью, а главное, сумеют ли они оба вовремя и без потерь прекратить этот спектакль.

Рейтинг и доп. информация:


Видео: 1022x576 (16:9), 25.000 fps, MPEG4 AVC (х264) , ~ 2367 kbps avg, 0.161 bit/pixel
Аудио: 48 kHz, AC3, 2 ch, 192 kbps avg
x264 [info]: frame I:639 Avg QP:13.96 size: 66527
x264 [info]: frame P:21257 Avg QP:16.97 size: 23481
x264 [info]: frame B:53509 Avg QP:18.47 size: 6552
x264 [info]: consecutive B-frames: 3.6% 5.5% 10.8% 65.6% 8.3% 5.3% 0.5% 0.2% 0.1% 0.1%
x264 [info]: mb I I16..4: 7.1% 60.3% 32.5%
x264 [info]: mb P I16..4: 1.9% 16.3% 3.9% P16..4: 27.5% 29.7% 9.7% 3.1% 0.3% skip: 7.6%
x264 [info]: mb B I16..4: 0.5% 2.5% 0.4% B16..8: 27.0% 19.3% 3.8% direct: 6.0% skip:40.5% L0:35.6% L1:47.2% BI:17.2%
x264 [info]: 8x8 transform intra:72.2% inter:47.8%
x264 [info]: direct mvs spatial:99.3% temporal:0.7%
x264 [info]: coded y,uvDC,uvAC intra: 74.1% 74.3% 57.1% inter: 18.5% 22.4% 10.5%
x264 [info]: i16 v,h,dc,p: 32% 18% 6% 44%
x264 [info]: i8 v,h,dc,ddl,ddr,vr,hd,vl,hu: 20% 15% 13% 6% 7% 9% 8% 9% 11%
x264 [info]: i4 v,h,dc,ddl,ddr,vr,hd,vl,hu: 31% 16% 13% 5% 8% 8% 7% 6% 6%
x264 [info]: i8c dc,h,v,p: 34% 29% 25% 12%
x264 [info]: Weighted P-Frames: Y:4.5% UV:2.1%
x264 [info]: ref P L0: 59.2% 9.2% 16.9% 4.2% 3.4% 2.4% 2.1% 1.2% 1.3% 0.2% 0.0%
x264 [info]: ref B L0: 87.0% 8.0% 2.2% 1.0% 0.7% 0.6% 0.3% 0.2%
x264 [info]: ref B L1: 96.3% 3.7%
x264 [info]: kb/s:2366.59

Общее
Уникальный идентификатор : 201761655998769281485507961985523004985 (0x97C9E1A970F73999AD84472E59943639)
Полное имя : Vremenno.Nedostupen.2015.WEB-DLRip.(AVC).ExKinoRayVremenno.nedostupen.(E01).2015.x264.WEB-DLRip.(AVC).ExKinoRay.mkv
Формат : Matroska
Версия формата : Version 2
Размер файла : 921 Мбайт
Продолжительность : 50 м.
Общий поток : 2560 Кбит/сек
Название фильма : Временно недоступен.2015.Rip by: ollan
Дата кодирования : UTC 2015-12-21 20:14:46
Программа кодирования : mkvmerge v5.6.0 ('Kenya Kane') built on May 27 2012 16:44:04
Библиотека кодирования : libebml v1.2.3 + libmatroska v1.3.0

Видео
Идентификатор : 1
Формат : AVC
Формат/Информация : Advanced Video Codec
Профиль формата :
Параметр CABAC формата : Да
Параметр ReFrames формата : 9 кадров
Идентификатор кодека : V_MPEG4/ISO/AVC
Продолжительность : 50 м.
Битрейт : 2367 Кбит/сек
Ширина : 1022 пикселя
Высота : 576 пикселей
Соотношение сторон : 16:9
Режим частоты кадров : Постоянный
Частота кадров : 25,000 кадров/сек
Цветовое пространство : YUV
Субдискретизация насыщенности : 4:2:0
Битовая глубина : 8 бит
Тип развёртки : Прогрессивная
Бит/(Пиксели*Кадры) : 0.161
Размер потока : 833 Мбайт (91%)
Библиотека кодирования : x264 core 125 r2200 999b753
Настройки программы : cabac=1 / ref=9 / deblock=1:-3:-3 / analyse=0x3:0x133 / me=umh / subme=11 / psy=1 / psy_rd=1.00:0.05 / mixed_ref=1 / me_range=48 / chroma_me=1 / trellis=2 / 8x8dct=1 / cqm=0 / deadzone=21,11 / fast_pskip=0 / chroma_qp_offset=-3 / threads=12 / lookahead_threads=2 / sliced_threads=0 / nr=0 / decimate=0 / interlaced=0 / bluray_compat=0 / constrained_intra=0 / bframes=9 / b_pyramid=2 / b_adapt=2 / b_bias=0 / direct=3 / weightb=1 / open_gop=0 / weightp=2 / keyint=250 / keyint_min=25 / scenecut=40 / intra_refresh=0 / rc=2pass / mbtree=0 / bitrate=2367 / ratetol=1.0 / qcomp=0.60 / qpmin=0 / qpmax=69 / qpstep=4 / cplxblur=20.0 / qblur=0.5 / ip_ratio=1.40 / pb_ratio=1.30 / aq=1:1.00
Язык : Russian
Default : Да
Forced : Нет

Аудио
Идентификатор : 2
Формат : AC-3
Формат/Информация : Audio Coding 3
Расширение режима : CM (complete main)
Параметр Endianness формата : Big
Идентификатор кодека : A_AC3
Продолжительность : 50 м.
Вид битрейта : Постоянный
Битрейт : 192 Кбит/сек
Каналы : 2 канала
Расположение каналов : Front: L R
Частота : 48,0 КГц
Битовая глубина : 16 бит
Метод сжатия : С потерями
Размер потока : 69,0 Мбайт (7%)
Язык : Russian
Default : Да
Forced : Нет















   Похожие торренты   Торрент   Размер 
В этой теме нет новых непрочитанных сообщений. Временно недоступен [01-03 из 08] (2015) WEB-DLRip от ExKinoRay

11514 | 1712

5.46 ГБ

В этой теме нет новых непрочитанных сообщений. Временно недоступен [01 из 08] (2015) WEB-DLRip от MegaPeer

12 | 0

352.31 МБ

В этой теме нет новых непрочитанных сообщений. Временно недоступен [01 из 08] (2015) WEB-DLRip от GeneralFilm

3 | 0

555.95 МБ

В этой теме нет новых непрочитанных сообщений. Временно недоступен [01 из 08] (2015) WEB-DLRip-AVC от ExKinoRay

В этой теме нет новых непрочитанных сообщений. Временно недоступен [01-06 из 08] (2015) WEB-DLRip от GeneralFilm

15 | 1

3.26 ГБ

В этой теме нет новых непрочитанных сообщений. Временно недоступен [01-08 из 08] (2015) WEB-DLRip от GeneralFilm

886 | 117

4.35 ГБ

В этой теме нет новых непрочитанных сообщений. Временно недоступен [01-03 из 08] (2015) WEB-DLRip от GeneralFilm

7 | 3

1.63 ГБ




Вы не можете начинать темы
Вы не можете отвечать на сообщения
Вы не можете редактировать свои сообщения
Вы не можете удалять свои сообщения
Вы не можете добавлять вложения

Перейти:  
Для Мосгорсуда, Роскомнадзора и рекламодателей: mosgorsud-torrent[собачка]yandex.ru
 Вход
ppkBB3cker v.2 © 2008-2014 @ PPK
[ Time : 0.066s | 18 Queries | GZIP : Off ]

cron