SpongeBob Kanciastoporty
Sposb na faceta
img image001 image001 image001 image001 image001 image001 image001 image001 image001 image001 image001 image001 image001 image001 image001
Planets Sun Sun Sun
Статистика раздачи
Автор: PriZraK | Размер: 4.59 ГБ | Добавлен: 12 фев 2018
Раздают: 14    Качают: 10
Скачать торрент
Скачать торрент
Описание торрента

СообщениеДобавлено: 12 фев 2018 

Скалолазка / Рожденная мечтать (1-8 серии из 8)
Оценка релиза: 
Перевод: Не требуется, cубтитры: отсутствуют
Формат: WEB-DLRip-AVC, MKV, H.264, AC3
Страна: Россия
Режиссер: Андрей Селиванов
Жанр: мелодрама
Всего серий: 8
Продолжительность: 8 х ~ 00:45:00
Год выпуска: 2015

В ролях: Татьяна Космачёва, Роман Ладнев, Станислав Бондаренко, Мария Аниканова, Дмитрий Щербина, Александр Суворов, Лилия Разакова, Алина Ланина, Михаил Мартьянов, Ричард Бондарев, Дмитрий Никонов, Анастасия Сметанина, Сергей Генкин, Роман Хардиков, Дмитрий Павленко, Юлия Яновская, Кристина Пакарина, Евгений Гусев, Дмитрий Артаев, Софья Терехова-Багратиони, Евгения Бордзиловская, Владимир Довжик, Елена Блинникова (II), Ола Кейру

Описание: Супруги Ирина и Леонид спасают маленькую девочку, чудом уцелевшую в автокатастрофе в горах. У пары нет своих детей, и, думая, что семья малышки погибла, они решаются удочерить ее и называют Ниной.Проходят годы, Нина вырастает настоящей красавицей. После трагической гибели Леонида, бывшего альпиниста, Ирина всю себя посвящает дочери. Ее огорчает лишь то, что девушка грезит романтикой гор и мечтает пойти по стопам Леонида – стать скалолазкой.. Тем временем, в далекой Осетии старый монах перед смертью находит родного брата Нины Михаила. Он признаётся, что, будучи врачом, отдал выжившую девочку на воспитание чужим людям..

Доп. инфа:


Видео: 1024x576 (16:9), 25.000 fps, MPEG4 AVC (х264) , ~ 1600 kbps avg, 0.109 bit/pixel
Аудио: 48 kHz, AC3, 2 ch, 192 kbps avg
Общее
Уникальный идентификатор : 219475917702230814779268064994539798998 (0xA51D8631CE012CF390A3D6618C4F01D6)
Полное имя : Skalolazka.2015.WEB-DLRip.AVC.\Skalolazka.(Rozhdennaja.mechtat).(01.seriya).2015.WEB-DLRip.AVC.mkv
Формат : Matroska
Версия формата : Version 2
Размер файла : 581 Мбайт
Продолжительность : 45 м.
Общий поток : 1793 Кбит/сек
Дата кодирования : UTC 2015-12-18 20:35:21
Программа кодирования : mkvmerge v6.1.0 ('Old Devil') built on Mar 4 2013 09:10:42
Библиотека кодирования : libebml v1.3.0 + libmatroska v1.4.0

Видео
Идентификатор : 1
Формат : AVC
Формат/Информация : Advanced Video Codec
Профиль формата :
Параметр CABAC формата : Да
Параметр ReFrames формата : 9 кадров
Идентификатор кодека : V_MPEG4/ISO/AVC
Продолжительность : 45 м.
Битрейт : 1600 Кбит/сек
Ширина : 1024 пикселя
Высота : 576 пикселей
Соотношение сторон : 16:9
Режим частоты кадров : Постоянный
Частота кадров : 25,000 кадров/сек
Цветовое пространство : YUV
Субдискретизация насыщенности : 4:2:0
Битовая глубина : 8 бит
Тип развёртки : Прогрессивная
Бит/(Пиксели*Кадры) : 0.109
Размер потока : 507 Мбайт (87%)
Библиотека кодирования : x264 core 130 r2273 b3065e6
Настройки программы : cabac=1 / ref=9 / deblock=1:-2:-1 / analyse=0x3:0x133 / me=umh / subme=9 / psy=1 / psy_rd=1.00:0.15 / mixed_ref=1 / me_range=32 / chroma_me=1 / trellis=2 / 8x8dct=1 / cqm=0 / deadzone=21,11 / fast_pskip=0 / chroma_qp_offset=-3 / threads=3 / lookahead_threads=1 / sliced_threads=0 / nr=0 / decimate=1 / interlaced=0 / bluray_compat=0 / constrained_intra=0 / bframes=9 / b_pyramid=2 / b_adapt=2 / b_bias=0 / direct=1 / weightb=1 / open_gop=0 / weightp=2 / keyint=250 / keyint_min=25 / scenecut=40 / intra_refresh=0 / rc=2pass / mbtree=0 / bitrate=1600 / ratetol=1.0 / qcomp=0.60 / qpmin=0 / qpmax=69 / qpstep=4 / cplxblur=20.0 / qblur=0.5 / ip_ratio=1.40 / pb_ratio=1.30 / aq=2:1.00
Default : Да
Forced : Нет
Цветовой диапазон : Limited
Основные цвета : BT.709
Характеристики трансфера : BT.709
Коэффициенты матрицы : BT.709

Аудио
Идентификатор : 2
Формат : AC-3
Формат/Информация : Audio Coding 3
Расширение режима : CM (complete main)
Параметр Endianness формата : Big
Идентификатор кодека : A_AC3
Продолжительность : 45 м.
Вид битрейта : Постоянный
Битрейт : 192 Кбит/сек
Каналы : 2 канала
Расположение каналов : Front: L R
Частота : 48,0 КГц
Метод сжатия : С потерями
Размер потока : 62,2 Мбайт (11%)
Default : Да
Forced : Нет








Внимание! Раздача ведётся путём добавления новых серий. При каждом добавлении создаётся новый торрент.
Чтобы начать докачку новой серии, пользователям необходимо сделать следующее:
1. Остановить скачивание.
2. Удалить старый торрент у себя из клиента (старые серии удалять не надо).
3. Скачать новый торрент и запустить его у себя в клиенте вместо старого, при этом указать клиенту путь в старую папку куда и должно происходить скачивание новых серий. Ваш клиент при этом должен произвести хеширование (проверку) старой папки и будет докачивать только те серии, которых у вас ещё нет. Старые серии при этом не удаляются, а продолжают раздаваться! Eсли вы уже удалили старые серии, то предотвратить повторную закачку старых серий можно, отжав галочку в соответствующих местах при запуске нового торрента.




   Похожие торренты   Торрент   Размер 
В этой теме нет новых непрочитанных сообщений. Заклятые подруги (1-4 серии из 4) (Андрей Селиванов) [2017, мелодрама, SATRip]

190 | 8

2.3 ГБ

В этой теме нет новых непрочитанных сообщений. Склифосовский / Склиф (1 сезон 1 - 24 серии из 24 ) (Андрей Селиванов) [2012, драма, мелодрама, HDTVRip 720p]

21 | 7

28.81 ГБ

В этой теме нет новых непрочитанных сообщений. Склифосовский / Склиф (3 сезон 1 - 24 серии из 24 ) (Андрей Селиванов) [2013, драма, мелодрама, HDTVRip 720p]

11 | 7

37.33 ГБ

В этой теме нет новых непрочитанных сообщений. Склифосовский / Склиф (2 сезон 1 - 24 серии из 24 ) (Андрей Селиванов) [2012-2013, драма, мелодрама, HDTVRip 720p]

8 | 14

30.33 ГБ

В этой теме нет новых непрочитанных сообщений. Жизненные обстоятельства (1-4 серии из 4) (Андрей Мармонтов) [2014, криминал, мелодрама, WEB-DLRip-AVC]

0 | 0

2.59 ГБ

В этой теме нет новых непрочитанных сообщений. Любовь говорит (1-2 серии из 2) (Андрей Либенсон, Виктор Татарский) [2016, мелодрама, WEB-DLRip] / Драмы

6 | 0

2.74 ГБ

В этой теме нет новых непрочитанных сообщений. Добежать до себя (1-4 серии из 4) (Андрей Иванов) [2017, мелодрама, SATRip]

27 | 0

2.24 ГБ




Вы не можете начинать темы
Вы не можете отвечать на сообщения
Вы не можете редактировать свои сообщения
Вы не можете удалять свои сообщения
Вы не можете добавлять вложения

Перейти:  
Для Мосгорсуда, Роскомнадзора и рекламодателей: mosgorsud-torrent[собачка]yandex.ru
 Вход
ppkBB3cker v.2 © 2008-2014 @ PPK
[ Time : 1.638s | 19 Queries | GZIP : Off ]

cron