Documentary
Japanese
img image001 image001 image001 image001 image001 image001 image001 image001 image001 image001 image001 image001 image001 image001 image001 image001
Planets Sun Sun Sun
Статистика раздачи
Автор: PriZraK | Размер: 1.47 ГБ | Добавлен: 12 фев 2018
Раздают: 33    Качают: 8
Скачать торрент
Скачать торрент
Описание торрента

СообщениеДобавлено: 12 фев 2018 

Парадокс Кловерфилда / Частица Бога / The Cloverfield Paradox


Перевод: Любительский (многоголосый закадровый)[BaibaKo], субтитры: отсутствуют
Формат: WEBDLRip-AVC, MKV, H.264, AC3
Страна: США
Режиссер: Джулиус Она
Жанр: ужасы, фантастика, триллер, детектив
Продолжительность: 00:41:47
Год выпуска: 2018
В ролях: Гугу Эмбата-Ро, Дэвид Ойелоуо, Даниэль Брюль, Крис О`Дауд, Аксель Хенни, Цзыи Чжан, Элизабет Дебики, Роджер Дейвис, Джон Ортис

Описание: Очередная группа прибыла на орбитальную станцию, чтобы заменить старую смену и продолжать изучение планеты. Новые разработки этой общей экспедиции раскрыли теорию появления так называемых частиц бога в галактике и приблизили человечество к разгадке появления жизни именно на планете Земля. Созданная астронавтами станция, позволяющая ускорять частицы имела сложную структуру и показывала, как все развивалось. Однако стоило в этом сложном механизме допустить малейшую ошибку, произошедшая авария приводит к глобальной катастрофе.



Видео: 1024x432 (2.40:1), 23,976 fps, AVC MPEG-4 (x264), , ~ 1572 kb/s, 0.148 bit/pixel
Аудио: 48 kHz, AC3 Dolby Digital, 3/2 (L,C,R,l,r) + LFE ch, ~448 kbps
General
Unique ID : 179339707435555654192828268654570798214 (0x86EB923F31E7B2B0D0BA933741087C86)
Complete name : C:\Users\Юрик\Downloads\The.Cloverfield.Paradox.2018_[tfile.ru].mkv
Format : Matroska
Format version : Version 2
File size : 1.47 GiB
Duration : 1 h 41 min
Overall bit rate : 2 061 kb/s
Writing application : Lavf55.12.100
Writing library : Lavf55.12.100

Video
ID : 2
Format : AVC
Format/Info : Advanced Video Codec
Format profile :
Format settings, CABAC : Yes
Format settings, RefFrames : 2 frames
Codec ID : V_MPEG4/ISO/AVC
Duration : 1 h 41 min
Bit rate : 1 572 kb/s
Width : 1 024 pixels
Height : 432 pixels
Display aspect ratio : 2.40:1
Frame rate mode : Constant
Frame rate : 23.976 (24000/1001) FPS
Color space : YUV
Chroma subsampling : 4:2:0
Bit depth : 8 bits
Scan type : Progressive
Bits/(Pixel*Frame) : 0.148
Stream size : 1.12 GiB (76%)
Default : Yes
Forced : No
Statistics Tags Issue : mkvmerge v8.3.0 ('Over the Horizon') 64bit 2018-02-07 12:00:28 / Lavf55.12.100
FromStats_BitRate : 10513433
FromStats_Duration : 01:41:46.642000000
FromStats_FrameCount : 146413
FromStats_StreamSize : 8025221834

Audio
ID : 1
Format : AC-3
Format/Info : Audio Coding 3
Format settings, Endianness : Big
Codec ID : A_AC3
Duration : 1 h 41 min
Bit rate mode : Constant
Bit rate : 448 kb/s
Channel(s) : 6 channels
Channel positions : Front: L C R, Side: L R, LFE
Sampling rate : 48.0 kHz
Frame rate : 31.250 FPS (1536 SPF)
Bit depth : 16 bits
Compression mode : Lossy
Stream size : 326 MiB (22%)
Title : BaibaKo
Language : Russian
Service kind : Complete Main
Default : Yes
Forced : No
Statistics Tags Issue : mkvmerge v8.3.0 ('Over the Horizon') 64bit 2018-02-07 12:00:28 / Lavf55.12.100
FromStats_BitRate : 448000
FromStats_Duration : 01:41:46.624000000
FromStats_FrameCount : 190832
FromStats_StreamSize : 341970944

















   Похожие торренты   Торрент   Размер 
В этой теме нет новых непрочитанных сообщений. Парадокс Кловерфилда / Частица Бога / The Cloverfield Paradox (Джулиус Она) [2018, ужасы, фантастика, триллер, детектив, WEBDLRip] MVO

188 | 14

1.46 ГБ

В этой теме нет новых непрочитанных сообщений. Парадокс Кловерфилда / Частица Бога / The Cloverfield Paradox (2018) WEBRip | L1

21 | 9

1.44 ГБ

В этой теме нет новых непрочитанных сообщений. Парадокс Кловерфилда / Частица Бога / The Cloverfield Paradox (2018) WEBRip-AVC от k.e.n | L1

272 | 44

1.46 ГБ

В этой теме нет новых непрочитанных сообщений. Парадокс Кловерфилда / Частица Бога / The Cloverfield Paradox (2018) WEBRip 1080p | L, L1

323 | 128

8.43 ГБ

В этой теме нет новых непрочитанных сообщений. Парадокс Кловерфилда / Частица Бога / The Cloverfield Paradox (2018) WEBRip-AVC | BaibaKo

275 | 68

2.49 ГБ

В этой теме нет новых непрочитанных сообщений. Парадокс Кловерфилда / Частица Бога / The Cloverfield Paradox (2018) WEBRip | BaibaKo

1453 | 240

1.45 ГБ

В этой теме нет новых непрочитанных сообщений. Парадокс Кловерфилда / Частица Бога / The Cloverfield Paradox (2018) WEBRip 1080p | BaibaKo

95 | 13

8.4 ГБ




Вы не можете начинать темы
Вы не можете отвечать на сообщения
Вы не можете редактировать свои сообщения
Вы не можете удалять свои сообщения
Вы не можете добавлять вложения

Перейти:  
Для Мосгорсуда, Роскомнадзора и рекламодателей: mosgorsud-torrent[собачка]yandex.ru
 Вход
ppkBB3cker v.2 © 2008-2014 @ PPK
[ Time : 0.033s | 19 Queries | GZIP : Off ]

cron