Ishq Kills
Mad In India
img image001 image001 image001 image001 image001 image001 image001 image001 image001 image001 image001 image001 image001 image001 image001
Planets Sun Sun Sun
Статистика раздачи
Автор: PriZraK | Размер: 2.77 ГБ | Добавлен: 12 фев 2018
Раздают: 59    Качают: 3
Скачать торрент
Скачать торрент
Описание торрента

СообщениеДобавлено: 12 фев 2018 

Миссия "Серенити" / Serenity
Оценка релиза: 

Перевод: Профессиональный (полное дублирование), субтитры: отсутствуют
Формат: BDRip-AVC, MKV, H.264, AC3
Страна: США
Режиссер: Джосс Уидон
Жанр: фантастика, боевик, триллер, приключения
Продолжительность: 01:59:02
Год выпуска: 2005
В ролях: Нэйтан Филлион, Джина Торрес, Алан Тьюдик, Морена Баккарин, Адам Болдуин, Джуэл Стэйт, Шон Маэр, Саммер Глау, Рон Гласс, Чиветель Эджиофор, Дэвид Крамхолц, Майкл Хичкок, Рафаэль Фелдман, Сара Полсон, Нектар Роуз, Ян Фелдман
Описание:
Когда-то Малькольм Рейнольдс, более известный под кличкой «Мэл» был рейнджером космических сил, он стал одним из героев Гражданской Галактической войны, но те времена давно ушли в прошлое. Теперь он капитан небольшого транспортного корабля. Во время одного из рейдов на борт его корабля попадают доктор с сестрой, обладающей телепатическими способностями. Этих людей преследует множество могущественных организаций, но Мэл об этом не подозревает. Когда беглецы попадают на борт его корабля, начинаются приключения, от которых Мэл уже давно отвык.


Видео: 1280x544 (2.35:1) 23.976 fps, MPEG4 AVC (x264) , 2875 kbps avg, 0.172 bit/pixel
Аудио: 48 kHz, AC3 Dolby Digital, 3/2 (L,C,R,l,r) + LFE ch, ~384.00 kbps avg

Complete name : D:\Missiya_.Sereniti.2005.BDRip-AVC.2,7gb.mkv
Format : Matroska
File size : 2.76 GiB
Duration : 1h 59mn
Overall bit rate : 3 325 Kbps
Encoded date : UTC 2014-05-17 10:08:45
Writing application : mkvmerge v5.0.1 ('Es ist Sommer') built on Oct 23 2011 00:46:40
Writing library : libebml v1.2.2 + libmatroska v1.3.0

Video
ID : 1
Format : AVC
Format/Info : Advanced Video Codec
Format profile :
Format settings, CABAC : Yes
Format settings, ReFrames : 9 frames
Codec ID : V_MPEG4/ISO/AVC
Duration : 1h 59mn
Bit rate : 2 875 Kbps
Width : 1 280 pixels
Height : 544 pixels
Display aspect ratio : 2.35:1
Frame rate : 23.976 fps
Color space : YUV
Chroma subsampling : 4:2:0
Bit depth : 8 bits
Scan type : Progressive
Bits/(Pixel*Frame) : 0.172
Stream size : 2.39 GiB (86%)
Writing library : x264 core 125 r2208 d9d2288
Encoding settings : cabac=1 / ref=9 / deblock=1:-3:-3 / analyse=0x3:0x133 / me=umh / subme=11 / psy=1 / psy_rd=1.00:0.20 / mixed_ref=1 / me_range=32 / chroma_me=1 / trellis=2 / 8x8dct=1 / cqm=0 / deadzone=21,11 / fast_pskip=0 / chroma_qp_offset=-3 / threads=12 / lookahead_threads=2 / sliced_threads=0 / nr=0 / decimate=1 / interlaced=0 / bluray_compat=0 / constrained_intra=0 / bframes=8 / b_pyramid=2 / b_adapt=2 / b_bias=0 / direct=1 / weightb=1 / open_gop=0 / weightp=2 / keyint=250 / keyint_min=23 / scenecut=40 / intra_refresh=0 / rc=crf / mbtree=0 / crf=21.0 / qcomp=0.60 / qpmin=0 / qpmax=69 / qpstep=4 / ip_ratio=1.10 / pb_ratio=1.10 / aq=1:1.00

Audio
ID : 2
Format : AC-3
Format/Info : Audio Coding 3
Mode extension : CM (complete main)
Codec ID : A_AC3
Duration : 1h 59mn
Bit rate mode : Constant
Bit rate : 384 Kbps
Channel(s) : 6 channels
Channel positions : Front: L C R, Side: L R, LFE
Sampling rate : 48.0 KHz
Bit depth : 16 bits
Stream size : 327 MiB (12%)
Language : Russian



















   Похожие торренты   Торрент   Размер 
В этой теме нет новых непрочитанных сообщений. Миссия «Серенити» / Serenity (2005) HDRip-AVC | BDRip 720p

32 | 1

744.38 МБ

В этой теме нет новых непрочитанных сообщений. Акулосьминог против Китоволка / Sharktopus vs. Whalewolf (Кевин О’Нилл) [2015, фантастика, боевик, триллер, приключения, HDTVRip-AVC] AVO / Фильмы HDRip

326 | 8

2.76 ГБ

В этой теме нет новых непрочитанных сообщений. Миссия «Серенити» / Serenity (2005) HDRip

9 | 4

744.96 МБ

В этой теме нет новых непрочитанных сообщений. Миссия «Серенити» / Serenity (2005) BDRip | D, P2, A

31 | 89

3.51 ГБ

В этой теме нет новых непрочитанных сообщений. Миссия «Серенити» / Serenity (2005) BDRip-AVC

38 | 11

2.17 ГБ

В этой теме нет новых непрочитанных сообщений. Миссия «Серенити» / Serenity (2005) BDRip 720p | D, P2, A

2 | 9

10.1 ГБ

В этой теме нет новых непрочитанных сообщений. Миссия Серенити / Serenity (2005) BDRip от HELLYWOOD

44 | 4

2.5 ГБ




Вы не можете начинать темы
Вы не можете отвечать на сообщения
Вы не можете редактировать свои сообщения
Вы не можете удалять свои сообщения
Вы не можете добавлять вложения

Перейти:  
Для Мосгорсуда, Роскомнадзора и рекламодателей: mosgorsud-torrent[собачка]yandex.ru
 Вход
ppkBB3cker v.2 © 2008-2014 @ PPK
[ Time : 0.065s | 19 Queries | GZIP : Off ]

cron